Доктор Кто и Далеки / Dr. Who and the Daleks (Гордон Флеминг) [1965 г., фантастика,, BDRip-1080p] ЛО (RollingHead), СТ (Чемпион)

Reply to topic
 
Author Message

admin ®

Gender: Male

Longevity: 7 years 3 months

Posts: 4797

Post 04-Jun-2013 18:43

[Quote]

Доктор Кто и Далеки / Dr. Who and the Daleks
Релиз - kosmoaelita. com
Год выпуска: 1965
Страна: Великобритания, AARU Productions
Жанр: фантастика,
Продолжительность: 01:19:34
Перевод: ЛО (RollingHead)
Субтитры Чемпион
Режиссер: Гордон Флеминг
В ролях: Питер Кашинг, Рой Кастл, Дженни Линден, Роберта Тоуви, Бэрри Ингэм, Майкл Коулз, Ивонн Энтробус, Джеффри Тун, Джон Баун, Марк Петерсен
Описание: Доктор Кто случайно активирует свое новое изобретение «Tardis» (Time And Relative Dimensions In Space)-машину времени, сделанную под полицейскую телефонную будку. Вместе со своими внучкой и племянницей Сюзан и Барбарой, а также их другом Яном, он переносится сквозь время на планету Скаро. Она опустошена ядерной войной. Вскоре путешественники во времени обнаруживают металлический город, где мирная раса «талов» находится в повиновении со стороны других обитателей планеты, роботов-мутантов «далеков»…
Первый фильм о далеках. Второй - Вторжение Далеков на Землю / Daleks' Invasion Earth: 2150 A.D.
Релиз

Качество: BDRip-1080p
Формат: MKV
Видео: x264, 8774 кбит/с, 1920x816, 24 к/с
Аудио 1: Русский (RollingHead) (AC3, 2 ch, 192 Кбит/с)
Аудио 2: Английский (AC3, 2 ch, 384 Кбит/с)
Аудио 3: Английский (Комментарии) (AC3, 2 ch, 192 Кбит/с)
Субтитры : Русские (Чемпион), английские


Трейлер

Релиз

Релиз kosmoaelita.com
Рип найден в сети
Синхронизация дорожек и работа со звуком - sasha20072007
Озвучка по заказу kosmoaelita.com - RollingHead
Субтитры - Чемпион
DVDRip-AVC vs. BDRip-720p
BDRip-720p vs. BDRip-1080p
Для Украины: рип и оригинальный ДВД дополнительно залиты в файлохранилище
Для удаления,добавления и извлечения дорожек в mkv используйте бесплатную портативную mkvmerge GUI 6.2.0
Для присоединения потом дорожек к avi воспользуйтесь VirtualDubMod

Дополнительно

слоган «The Wildest Space Adventure on... or off the Earth!»
Also Known As (AKA)
Doctor Who and the Daleks Australia (TV title)
Doktor Who i Dalekowie Poland
Dokutâ Hû in Kaijin Dareku no Wakusei Japan (imdb display title)
Dr Who contre les Daleks France
Dr. Who y los Daleks Spain
O Dr. Who kai oi Dalekoi Greece (video title)

Рецензия

Не совсем тот Доктор
Как я уже говорил, «Доктор Кто» — это не просто культурное явление. Это целая Вселенная, с собственной историей, особыми законами, множеством миров и персонажей. И неканоническими версиями.
Фильм «Доктор Кто и далеки» — одна из них. На первый взгляд все очень похоже. Есть Доктор, есть его внучка (кстати, на момент съемок фильма зрители видели только одного Первого Доктора в исполнении Уильяма Хартнелла) и спутники, есть ТАРДИС (больше внутри, чем снаружи и похожая на телефонную будку). И есть далеки. Те самые злобные пришельцы, причудливого вида, прослывшие самыми опасными монстрами во Вселенной. Вроде бы все есть… но чего-то важного нет. Нет специфического обаяния, которое отличало «Доктора Кто» от сонма других подобных историй. Даже главная тема искажена настолько, что ее не узнать. И далеки, убивающие врагов… паром!
В общем, действие, увы, временами напоминает фарс или сотню других фантастических ужастиков\боевиков о вторжении пришельцев, снимаемых в то время. Пожалуй, единственная причина почему ее стоит посмотреть — актер, играющий полицейского Тома, одного из спутников Доктора, позднее сыгравший Уилфа в четвертом сезоне н. ш.
4 из 10

MediaInfo

Общее
Уникальный идентификатор : 208525747913822102062554964522592887081 (0x9CE099242DD19962BC45A4E95C0FE129)
Полное имя : F:\Доктор Кто и Далеки 1965.x264.BDRip.1080p.kosmoaelita.com.mkv
Формат : Matroska
Версия формата : Version 4 / Version 2
Размер файла : 5,53 Гбайт
Продолжительность : 1 ч. 22 м.
Общий поток : 9548 Кбит/сек
Название фильма : Dr. Who and the Daleks / Доктор Кто и Далеки / 1965 / Релиз www. kosmoaelita. com
Дата кодирования : UTC 2013-06-04 15:31:12
Программа кодирования : mkvmerge v6.2.0 ('Promised Land') built on Apr 28 2013 12:22:01
Библиотека кодирования : libebml v1.3.0 + libmatroska v1.4.0
Видео
Идентификатор : 1
Формат : AVC
Формат/Информация : Advanced Video Codec
Профиль формата : High@L4.1
Параметр CABAC формата : Да
Параметр ReFrames формата : 5 кадров
Идентификатор кодека : V_MPEG4/ISO/AVC
Продолжительность : 1 ч. 22 м.
Битрейт : 8774 Кбит/сек
Ширина : 1920 пикселей
Высота : 816 пикселей
Соотношение сторон : 2,35:1
Режим частоты кадров : Постоянный
Частота кадров : 24,000 кадра/сек
Цветовое пространство : YUV
Субдискретизация насыщенности : 4:2:0
Битовая глубина : 8 бит
Тип развёртки : Прогрессивная
Бит/(Пиксели*Кадры) : 0.233
Размер потока : 4,98 Гбайт (90%)
Библиотека кодирования : x264 core 133 r2334 a3ac64b
Настройки программы : cabac=1 / ref=5 / deblock=1:0:0 / analyse=0x3:0x133 / me=umh / subme=7 / psy=1 / psy_rd=1.00:0.00 / mixed_ref=1 / me_range=16 / chroma_me=1 / trellis=1 / 8x8dct=1 / cqm=0 / deadzone=21,11 / fast_pskip=0 / chroma_qp_offset=-2 / threads=12 / lookahead_threads=2 / sliced_threads=0 / nr=0 / decimate=1 / interlaced=0 / bluray_compat=0 / constrained_intra=0 / bframes=3 / b_pyramid=2 / b_adapt=2 / b_bias=0 / direct=3 / weightb=1 / open_gop=0 / weightp=2 / keyint=250 / keyint_min=24 / scenecut=40 / intra_refresh=0 / rc_lookahead=50 / rc=2pass / mbtree=1 / bitrate=8774 / ratetol=1.0 / qcomp=0.60 / qpmin=0 / qpmax=69 / qpstep=4 / cplxblur=20.0 / qblur=0.5 / ip_ratio=1.40 / aq=1:1.00
Язык : English
Default : Да
Forced : Нет
Аудио #1
Идентификатор : 2
Формат : AC-3
Формат/Информация : Audio Coding 3
Расширение режима : CM (complete main)
Параметр Endianness формата : Big
Идентификатор кодека : A_AC3
Продолжительность : 1 ч. 22 м.
Вид битрейта : Постоянный
Битрейт : 192 Кбит/сек
Каналы : 2 канала
Расположение каналов : Front: L R
Частота : 48,0 КГц
Битовая глубина : 16 бит
Метод сжатия : С потерями
Размер потока : 114 Мбайт (2%)
Заголовок : Русский (kosmoaelita,RollingHead)
Язык : Russian
Default : Да
Forced : Нет
Аудио #2
Идентификатор : 3
Формат : AC-3
Формат/Информация : Audio Coding 3
Расширение режима : CM (complete main)
Параметр Endianness формата : Big
Идентификатор кодека : A_AC3
Продолжительность : 1 ч. 22 м.
Вид битрейта : Постоянный
Битрейт : 384 Кбит/сек
Каналы : 2 канала
Расположение каналов : Front: L R
Частота : 48,0 КГц
Битовая глубина : 16 бит
Метод сжатия : С потерями
Размер потока : 228 Мбайт (4%)
Язык : English
Default : Нет
Forced : Нет
Аудио #3
Идентификатор : 4
Формат : AC-3
Формат/Информация : Audio Coding 3
Расширение режима : CM (complete main)
Параметр Endianness формата : Big
Идентификатор кодека : A_AC3
Продолжительность : 1 ч. 22 м.
Вид битрейта : Постоянный
Битрейт : 192 Кбит/сек
Каналы : 2 канала
Расположение каналов : Front: L R
Частота : 48,0 КГц
Битовая глубина : 16 бит
Метод сжатия : С потерями
Размер потока : 114 Мбайт (2%)
Заголовок : Comment
Язык : English
Default : Нет
Forced : Нет
Текст #1
Идентификатор : 5
Формат : VobSub
Идентификатор кодека : S_VOBSUB
Идентификатор кодека/Информация : The same subtitle format used on DVDs
Заголовок : Русский (Чемпион) VobSub
Язык : Russian
Default : Да
Forced : Нет
Текст #2
Идентификатор : 6
Формат : UTF-8
Идентификатор кодека : S_TEXT/UTF8
Идентификатор кодека/Информация : UTF-8 Plain Text
Заголовок : Русский (Чемпион) srt
Язык : Russian
Default : Нет
Forced : Нет
Текст #3
Идентификатор : 7
Формат : UTF-8
Идентификатор кодека : S_TEXT/UTF8
Идентификатор кодека/Информация : UTF-8 Plain Text
Язык : English
Default : Нет
Forced : Нет
Меню
00:00:00.000 : en:00:00:00.000
00:08:32.333 : en:00:08:32.333
00:14:09.542 : en:00:14:09.542
00:21:10.250 : en:00:21:10.250
00:28:06.667 : en:00:28:06.667
00:33:45.500 : en:00:33:45.500
00:43:21.083 : en:00:43:21.083
00:48:26.042 : en:00:48:26.042
00:56:08.000 : en:00:56:08.000
01:02:19.833 : en:01:02:19.833
01:10:54.625 : en:01:10:54.625
01:17:02.042 : en:01:17:02.042

Скриншоты




cd DVDRip-AVC cd2 cd BDRip-720p cd2


Last edited by admin on 2013-06-04 18:57; edited 2 times in total
[Profile] [PM]

admin ®

Gender: Male

Longevity: 7 years 3 months

Posts: 4797

Post 04-Jun-2013 18:46 (after 2 minutes)

[Quote]

Блю-рэйная версия почти не реставрировалась.
Настройки кодирования рипа - не очень.
DVDRip-AVC vs. BDRip-720p
BDRip-720p vs. BDRip-1080p
[Profile] [PM]
Quick Reply

Name:

            
Heads necessary to send messages to enable JavaScript
Display posts:    
Reply to topic

Current time is: 05-Dec 21:28

All times are UTC + 3



You cannot post new topics in this forum
You can reply to topics in this forum
You cannot edit your posts in this forum
You cannot delete your posts in this forum
You cannot vote in polls in this forum
You cannot attach files in this forum
You cannot download files in this forum