Дитя / The Kid [Short] (Николас Венгер) [2018, США, научная фантастика, приключения WEB-DL-1080p] ЛО (Kortez), СТ (Mr.Faer)

Reply to topic
DL-List and Torrent activity
Size:  101 MB   |    Registered:  7 months 25 days   |    Completed:  1 time

Seeder not seen: 7 months 23 days

 
   
 
 
 
Author Message

Faer ®

Gender: Male

Longevity: 5 years 9 months

Posts: 472

Post 27-Feb-2020 19:42

[Quote]

Дитя / The Kid
Страна: США
Жанр: короткометражка, фильм действия, научная фантастика
Год выпуска: 2018
Продолжительность: 00:05:42
Перевод: ЛО Kortez по субтитрам от (Mr.Faer)
Режиссер: Майкл Шанкс
В ролях: Evan Alex, Drew Moore, Ellen Wroe
Описание: Она должна защитить его любой ценой....
Качество видео: WEB-DL-1080p
Формат: MKV
Видео: x264, 1917 кбит/с, 1920x1080, 25 к/с
Аудио 1: Русский ЛО (Kortez) (AC3, 2 ch, 256 Кбит/с)
Аудио 2: Английский (AC3, 2 ch, 256 Кбит/с)
Субтитры : Русские (Mr.Faer), английские
Работа над релизом:


[kp][/kp]

MediaInfo

Общее
Уникальный идентификатор : 197885380646800427237318296637744947667 (0x94DF56881CD56CD9866F1758E67121D3)
Полное имя : The Kid 2018.x264.WEBDL.1080p.Rus.kosmoaelita.mkv
Формат : Matroska
Версия формата : Version 4
Размер файла : 101 Мбайт
Продолжительность : 5 м. 42 с.
Общий поток : 2479 Кбит/сек
Название фильма : Дитя / The Kid / 2018 / kosmoaelita
Дата кодирования : UTC 2020-03-01 05:30:03
Программа кодирования : mkvmerge v6.6.0 ('The Edge Of The In Between') built on Dec 1 2013 17:55:00
Библиотека кодирования : libebml v1.3.0 + libmatroska v1.4.1
Attachments : poster.jpg
Видео
Идентификатор : 1
Формат : AVC
Формат/Информация : Advanced Video Codec
Профиль формата : High@L4
Настройки формата : CABAC / 3 Ref Frames
Параметр CABAC формата : Да
Параметр RefFrames формата : 3 кадра
Идентификатор кодека : V_MPEG4/ISO/AVC
Продолжительность : 5 м. 42 с.
Битрейт : 1917 Кбит/сек
Ширина : 1920 пикселей
Высота : 1080 пикселей
Соотношение сторон : 16:9
Режим частоты кадров : Постоянный
Частота кадров : 23,976 (24000/1001) кадра/сек
Цветовое пространство : YUV
Субдискретизация насыщенности : 4:2:0
Битовая глубина : 8 бит
Тип развёртки : Прогрессивная
Бит/(Пиксели*Кадры) : 0.039
Размер потока : 78,3 Мбайт (77%)
Заголовок : http://kosmoaelita.com/viewtopic.php?t=3056
Библиотека кодирования : x264 core 155 r2901 7d0ff22
Default : Да
Forced : Нет
Цветовой диапазон : Limited
Основные цвета : BT.709
Характеристики трансфера : BT.709
Коэффициенты матрицы : BT.709
Аудио #1
Идентификатор : 2
Формат : AC-3
Формат/Информация : Audio Coding 3
Коммерческое название : Dolby Digital
Идентификатор кодека : A_AC3
Продолжительность : 5 м. 42 с.
Вид битрейта : Постоянный
Битрейт : 256 Кбит/сек
Каналы : 2 канала
ChannelLayout : L R
Частота : 48,0 КГц
Частота кадров : 31,250 кадров/сек (1536 SPF)
Метод сжатия : С потерями
Размер потока : 10,5 Мбайт (10%)
Заголовок : Русский ЛО (Kortez) - для kosmoaelita.com
Язык : Russian
ServiceKind/String : Complete Main
Default : Да
Forced : Нет
Аудио #2
Идентификатор : 3
Формат : AC-3
Формат/Информация : Audio Coding 3
Коммерческое название : Dolby Digital
Идентификатор кодека : A_AC3
Продолжительность : 5 м. 42 с.
Вид битрейта : Постоянный
Битрейт : 256 Кбит/сек
Каналы : 2 канала
ChannelLayout : L R
Частота : 48,0 КГц
Частота кадров : 31,250 кадров/сек (1536 SPF)
Метод сжатия : С потерями
Размер потока : 10,5 Мбайт (10%)
Язык : English
ServiceKind/String : Complete Main
Default : Нет
Forced : Нет
Текст #1
Идентификатор : 4
Формат : UTF-8
Идентификатор кодека : S_TEXT/UTF8
Идентификатор кодека/Информация : UTF-8 Plain Text
Заголовок : Русский ((Mr.Faer)) - перевод с англ. субтитров
Язык : Russian
Default : Да
Forced : Нет
Текст #2
Идентификатор : 5
Формат : UTF-8
Идентификатор кодека : S_TEXT/UTF8
Идентификатор кодека/Информация : UTF-8 Plain Text
Язык : English
Default : Нет
Forced : Нет

Скриншоты




cd Рип дополнительно залит на облако cd2
The Kid [Short] 2018.x264.WEBDL.1080p.Rus.kosmoaelita.mkv.torrent
Torrent: Registered [ 2020-03-01 08:35 ]

Download .torrent

Download

2 KB

Status: checked
Completed: 1 times
Size: 101 MB
 
[Profile] [PM]
Display posts:    
Reply to topic

Current time is: 26-Oct 13:41

All times are UTC + 3



You can post new topics in this forum
You cannot reply to topics in this forum
You cannot edit your posts in this forum
You cannot delete your posts in this forum
You cannot vote in polls in this forum
You cannot attach files in this forum
You can download files in this forum