Временная ловушка / Time trap [Short] (Майкл Шанкс) [2020, США, научная фантастика, приключения WEB-DL-1080p] ЛО (Kortez), СТ (Mr.Faer)

Reply to topic
DL-List and Torrent activity
Size:  142 MB   |    Registered:  8 months 1 day   |    Completed:  0 times

Seeder not seen: 8 months 1 day

 
   
 
 
 
Author Message

Faer ®

Gender: Male

Longevity: 5 years 9 months

Posts: 472

Post 23-Feb-2020 20:16

[Quote]

Временная ловушка / Time trap
Страна: США
Жанр: короткометражка, приключения, комедия, научная фантастика
Год выпуска: 2013
Продолжительность: 00:07:47
Перевод: ЛО Kortez по субтитрам от (Mr.Faer)
Cубтитры: русские, английские, немецкие, португальские, испанские
Режиссер: Майкл Шанкс
В ролях: Марк Тейлор
Описание:
Космический путешественник потерпел крушение на Земле в далёком будущем, когда она уже необитаема. Но к счастью, у него есть портативный пузырь времени.


Качество видео: WEB-DL-1080p
Формат видео: MKV
Видео: AVC, 1920*1080, 16:9, 25fps, 2028 Кбит/с
Аудио 1: AAC, 44,1 КГц, 128 Кбит/с, стерео
Формат субтитров: softsub (SRT)

MediaInfo

Общее
Уникальный идентификатор : 215852133023191101834287073568002074595 (0xA2639BD0CF18D43CA06C416AFD12E7E3)
Полное имя : Q:\Time trap [Short] 2020.x264.WEBDL.1080p.kosmoaelita.mkv
Формат : Matroska
Версия формата : Version 4
Размер файла : 142 Мбайт
Продолжительность : 7 м. 47 с.
Общий поток : 2545 Кбит/сек
Дата кодирования : UTC 2020-02-24 23:30:57
Программа кодирования : mkvmerge v6.6.0 ('The Edge Of The In Between') built on Dec 1 2013 17:55:00
Библиотека кодирования : libebml v1.3.0 + libmatroska v1.4.1
Attachments : poster _.jpg
Видео
Идентификатор : 1
Формат : AVC
Формат/Информация : Advanced Video Codec
Профиль формата : High@L4
Настройки формата : CABAC / 3 Ref Frames
Параметр CABAC формата : Да
Параметр RefFrames формата : 3 кадра
Идентификатор кодека : V_MPEG4/ISO/AVC
Продолжительность : 7 м. 47 с.
Битрейт : 1982 Кбит/сек
Ширина : 1920 пикселей
Высота : 1080 пикселей
Соотношение сторон : 16:9
Режим частоты кадров : Постоянный
Частота кадров : 25,000 кадров/сек
Цветовое пространство : YUV
Субдискретизация насыщенности : 4:2:0
Битовая глубина : 8 бит
Тип развёртки : Прогрессивная
Бит/(Пиксели*Кадры) : 0.038
Размер потока : 110 Мбайт (78%)
Заголовок : http://kosmoaelita.com/viewtopic.php?t=3052
Default : Да
Forced : Нет
Цветовой диапазон : Limited
Основные цвета : BT.709
Характеристики трансфера : BT.709
Коэффициенты матрицы : BT.709
Аудио #1
Идентификатор : 2
Формат : AC-3
Формат/Информация : Audio Coding 3
Коммерческое название : Dolby Digital
Идентификатор кодека : A_AC3
Продолжительность : 7 м. 47 с.
Вид битрейта : Постоянный
Битрейт : 256 Кбит/сек
Каналы : 2 канала
ChannelLayout : L R
Частота : 48,0 КГц
Частота кадров : 31,250 кадров/сек (1536 SPF)
Метод сжатия : С потерями
Размер потока : 14,3 Мбайт (10%)
Заголовок : Русский ЛО (Kortez)
Язык : Russian
ServiceKind/String : Complete Main
Default : Да
Forced : Нет
Аудио #2
Идентификатор : 3
Формат : AC-3
Формат/Информация : Audio Coding 3
Коммерческое название : Dolby Digital
Идентификатор кодека : A_AC3
Продолжительность : 7 м. 47 с.
Вид битрейта : Постоянный
Битрейт : 256 Кбит/сек
Каналы : 2 канала
ChannelLayout : L R
Частота : 48,0 КГц
Частота кадров : 31,250 кадров/сек (1536 SPF)
Метод сжатия : С потерями
Размер потока : 14,3 Мбайт (10%)
Язык : English
ServiceKind/String : Complete Main
Default : Нет
Forced : Нет
Текст #1
Идентификатор : 4
Формат : UTF-8
Идентификатор кодека : S_TEXT/UTF8
Идентификатор кодека/Информация : UTF-8 Plain Text
Заголовок : Русский (Mr.Faer) - для kosmoaelita
Язык : Russian
Default : Да
Forced : Нет
Текст #2
Идентификатор : 5
Формат : UTF-8
Идентификатор кодека : S_TEXT/UTF8
Идентификатор кодека/Информация : UTF-8 Plain Text
Язык : German
Default : Нет
Forced : Нет
Текст #3
Идентификатор : 6
Формат : UTF-8
Идентификатор кодека : S_TEXT/UTF8
Идентификатор кодека/Информация : UTF-8 Plain Text
Язык : English
Default : Нет
Forced : Нет
Текст #4
Идентификатор : 7
Формат : UTF-8
Идентификатор кодека : S_TEXT/UTF8
Идентификатор кодека/Информация : UTF-8 Plain Text
Язык : Portuguese
Default : Нет
Forced : Нет
Текст #5
Идентификатор : 8
Формат : UTF-8
Идентификатор кодека : S_TEXT/UTF8
Идентификатор кодека/Информация : UTF-8 Plain Text
Язык : Spanish
Default : Нет
Forced : Нет

Скриншоты

cd Рип дополнительно залит на облако cd2
Time trap [Short] 2020.x264.WEBDL.1080p.kosmoaelita.mkv.torrent
Torrent: Registered [ 2020-02-25 02:34 ]

Download .torrent

Download

3 KB

Status: checked
Completed: 0 times
Size: 142 MB
 
[Profile] [PM]

kosmoaelita

Gender: Male

Longevity: 8 years 1 month

Posts: 1684

Post 25-Feb-2020 02:24 (after 1 day 6 hours)

[Quote]

В чем заключается русская озвучка?
В произношении названия. которого совершенно не слышно и в одной фразе - "Эй, что творишь?"
[Profile] [PM]

Faer ®

Gender: Male

Longevity: 5 years 9 months

Posts: 472

Post 25-Feb-2020 08:47 (after 6 hours)

[Quote]

26628В чем заключается русская озвучка?
В произношении названия. которого совершенно не слышно и в одной фразе - "Эй, что творишь" ?
Забавно, в вегасе всё ок, а после сведения говно получилось.
[Profile] [PM]

kosmoaelita

Gender: Male

Longevity: 8 years 1 month

Posts: 1684

Post 25-Feb-2020 09:42 (after 55 minutes)

[Quote]

26630Забавно, в вегасе всё ок,
Вегас вообще-то под видео заточен...
Под звук у Сони есть Sound Forge
[Profile] [PM]
Display posts:    
Reply to topic

Current time is: 26-Oct 12:12

All times are UTC + 3



You can post new topics in this forum
You cannot reply to topics in this forum
You cannot edit your posts in this forum
You cannot delete your posts in this forum
You cannot vote in polls in this forum
You cannot attach files in this forum
You can download files in this forum