Мы не были созданы для этого мира / We Were Not Made for This World [Short] (Колин Вест) [2016, США, научная фантастика, драма, WEB-DL-1080p] СТ (Mr.Faer), (Sub Eng), ЛО (Firka)

Reply to topic
DL-List and Torrent activity
Size:  34 MB   |    Registered:  8 months 8 days   |    Completed:  2 times

Seeder not seen: 7 months 24 days

 
   
 
 
 
Author Message

Faer ®

Gender: Male

Longevity: 5 years 9 months

Posts: 472

Post 17-Feb-2020 11:12

[Quote]

Мы не были созданы для этого мира / We Were Not Made for This World
Страна: США
Жанр: короткометражка, научная фантастика, драма
Год выпуска: 2016
Продолжительность: 00:03:42
Перевод 1: Субтитры Mr.Faer
Перевод 2: Субтитры английские
Перевод 3: ЛО Firka
Cубтитры: русские, английские
Режиссер: Колин Вест
В ролях: Tina Matthews, Mark 'Big Poppa' Stampley
Описание:
Робот ищет своих создателей, бредя по бескрайней пустыне.

Качество видео: WEB-DL-1080p
Формат видео: MKV
Видео: AVC, 1920*1080, 16:9, 23.976fps, 1165 Кбит/с
Аудио 1: AAC, 44,1 КГц, 128 Кбит/с, стерео
Аудио 2: MP3, 48,0 КГц, 215 Кбит/с, стерео
Формат субтитров: softsub (SRT)

MediaInfo

Общее
Уникальный идентификатор : 116732648463143231235145317658945732987 (0x57D1E3EBC4881007BA02CDC92339417B)
Полное имя : C:\Users\Professional\Desktop\We Were Not Made for this World [Short].mkv
Формат : Matroska
Версия формата : Version 4
Размер файла : 40,0 Мбайт
Продолжительность : 3 м. 42 с.
Режим общего битрейта : Переменный
Общий поток : 1512 Кбит/сек
Название фильма : Мы не были созданы для этого мира / We Were Not Made for This World / 2016 / kosmoaelita
Дата кодирования : UTC 2020-04-17 17:41:24
Программа кодирования : mkvmerge v25.0.0 ('Prog Noir') 64-bit
Библиотека кодирования : libebml v1.3.6 + libmatroska v1.4.9
Attachments : poster.jpg
Видео
Идентификатор : 1
Формат : AVC
Формат/Информация : Advanced Video Codec
Профиль формата : High@L4
Настройки формата : CABAC / 3 Ref Frames
Параметр CABAC формата : Да
Параметр RefFrames формата : 3 кадра
Идентификатор кодека : V_MPEG4/ISO/AVC
Продолжительность : 3 м. 42 с.
Битрейт : 1165 Кбит/сек
Ширина : 1920 пикселей
Высота : 1080 пикселей
Соотношение сторон : 16:9
Режим частоты кадров : Постоянный
Частота кадров : 23,976 (24000/1001) кадра/сек
Цветовое пространство : YUV
Субдискретизация насыщенности : 4:2:0
Битовая глубина : 8 бит
Тип развёртки : Прогрессивная
Бит/(Пиксели*Кадры) : 0.023
Размер потока : 30,8 Мбайт (77%)
Заголовок : http://kosmoaelita.com/viewtopic.php?t=3045
Библиотека кодирования : x264 core 155 r2901 7d0ff22
Default : Да
Forced : Нет
Цветовой диапазон : Limited
Основные цвета : BT.709
Характеристики трансфера : BT.709
Коэффициенты матрицы : BT.709
Аудио #1
Идентификатор : 2
Формат : AAC LC
Формат/Информация : Advanced Audio Codec Low Complexity
Идентификатор кодека : A_AAC-2
Продолжительность : 3 м. 42 с.
Битрейт : 128 Кбит/сек
Каналы : 2 канала
ChannelLayout : L R
Частота : 44,1 КГц
Частота кадров : 43,066 кадра/сек (1024 SPF)
Метод сжатия : С потерями
Размер потока : 3,39 Мбайт (8%)
Язык : English
Default : Да
Forced : Нет
Аудио #2
Идентификатор : 5
Формат : MPEG Audio
Версия формата : Version 1
Профиль формата : Layer 3
Идентификатор кодека : A_MPEG/L3
Идентификатор кодека/Подсказка : MP3
Продолжительность : 3 м. 42 с.
Вид битрейта : Переменный
Битрейт : 215 Кбит/сек
Каналы : 2 канала
Частота : 48,0 КГц
Частота кадров : 41,667 кадра/сек (1152 SPF)
Метод сжатия : С потерями
Размер потока : 5,68 Мбайт (14%)
Язык : Russian
Default : Нет
Forced : Нет
Текст #1
Идентификатор : 3
Формат : UTF-8
Идентификатор кодека : S_TEXT/UTF8
Идентификатор кодека/Информация : UTF-8 Plain Text
Продолжительность : 3 м. 19 с.
Битрейт : 131 бит/сек
ElementCount : 57
Размер потока : 3,19 Кбайт (0%)
Заголовок : Русский (Mr.Faer) - для kosmoaelita
Язык : Russian
Default : Да
Forced : Нет
Текст #2
Идентификатор : 4
Формат : UTF-8
Идентификатор кодека : S_TEXT/UTF8
Идентификатор кодека/Информация : UTF-8 Plain Text
Продолжительность : 3 м. 20 с.
Битрейт : 84 бит/сек
ElementCount : 64
Размер потока : 2,06 Кбайт (0%)
Язык : English
Default : Нет
Forced : Нет

Скриншоты




cd Рип дополнительно залит на облако cd2
We Were Not Made for this World [Short] 2016..x264.WEBDL.1080p.kosmoaelita.mkv.torrent
Torrent: Registered [ 2020-02-17 20:05 ]

Download .torrent

Download

2 KB

Status: checked
Completed: 2 times
Size: 34 MB
 
[Profile] [PM]

Faer ®

Gender: Male

Longevity: 5 years 9 months

Posts: 472

Post 17-Apr-2020 20:47 (after 2 months)

[Quote]

Добавлена одноголосая озвучка от Firka (только на мэйлру).
[Profile] [PM]
Display posts:    
Reply to topic

Current time is: 26-Oct 13:22

All times are UTC + 3



You can post new topics in this forum
You cannot reply to topics in this forum
You cannot edit your posts in this forum
You cannot delete your posts in this forum
You cannot vote in polls in this forum
You cannot attach files in this forum
You can download files in this forum