Долгий длинный полёт Ашбота / The Long Slow Flight of the Ashbot [Short] (Колин Вест) [2015, США, научная фантастика, драма, WEB-DL-1080p] СТ (Mr.Faer), (Sub Eng), ЛО (Firka)

Reply to topic
DL-List and Torrent activity
Size:  32 MB   |    Registered:  8 months 9 days   |    Completed:  1 time

Seeder not seen: 8 months 8 days

 
   
 
 
 
Author Message

Faer ®

Gender: Male

Longevity: 5 years 9 months

Posts: 472

Post 17-Feb-2020 07:14

[Quote]

Долгий длинный полёт Ашбота / The Long Slow Flight of the Ashbot
Страна: США
Жанр: короткометражка, научная фантастика, драма
Год выпуска: 2015
Продолжительность: 00:04:07
Перевод 1: Субтитры Mr.Faer
Перевод 2: Субтитры английские
Перевод 3: ЛО Firka
Cубтитры: русские, английские
Режиссер: Колин Вест
В ролях: William Frederick Knight
Описание:
Робот становится свидетелем коллапса вселенной, когда он медленно улетает за пределы космоса.

Качество видео: WEB-DL-1080p
Формат видео: MKV
Видео: AVC, 1920*1080, 16:9, 23.976fps, 947 Кбит/с
Аудио 1: AC3, 48,0 КГц, 192 Кбит/с, стерео (оригинал)
Аудио 2: AAC, 44,1 КГц, 128 Кбит/с, стерео (ЛО Firka)
Формат субтитров: softsub (SRT)

MediaInfo

Общее
Уникальный идентификатор : 32456214651076348020754746935942953863 (0x186AD6EDEA45E28B4E67C469DD81BB87)
Полное имя : C:\Users\Professional\Desktop\The Long Slow Flight of the Ashbot.mkv
Формат : Matroska
Версия формата : Version 4
Размер файла : 37,5 Мбайт
Продолжительность : 4 м. 7 с.
Общий поток : 1271 Кбит/сек
Название фильма : Долгий длинный полёт Ашбота / The Long Slow Flight of the Ashbot / 2015 / kosmoaelita
Дата кодирования : UTC 2020-05-10 16:31:23
Программа кодирования : mkvmerge v25.0.0 ('Prog Noir') 64-bit
Библиотека кодирования : libebml v1.3.6 + libmatroska v1.4.9
Attachments : poster.jpg
Видео
Идентификатор : 1
Формат : AVC
Формат/Информация : Advanced Video Codec
Профиль формата : High@L4
Настройки формата : CABAC / 3 Ref Frames
Параметр CABAC формата : Да
Параметр RefFrames формата : 3 кадра
Идентификатор кодека : V_MPEG4/ISO/AVC
Продолжительность : 4 м. 7 с.
Битрейт : 947 Кбит/сек
Ширина : 1920 пикселей
Высота : 1080 пикселей
Соотношение сторон : 16:9
Режим частоты кадров : Постоянный
Частота кадров : 23,976 (24000/1001) кадра/сек
Цветовое пространство : YUV
Субдискретизация насыщенности : 4:2:0
Битовая глубина : 8 бит
Тип развёртки : Прогрессивная
Бит/(Пиксели*Кадры) : 0.019
Размер потока : 27,9 Мбайт (74%)
Заголовок : http://kosmoaelita.com/viewtopic.php?t=3044
Библиотека кодирования : x264 core 155 r2901 7d0ff22
Default : Да
Forced : Нет
Цветовой диапазон : Limited
Основные цвета : BT.709
Характеристики трансфера : BT.709
Коэффициенты матрицы : BT.709
Аудио #1
Идентификатор : 2
Формат : AC-3
Формат/Информация : Audio Coding 3
Коммерческое название : Dolby Digital
Идентификатор кодека : A_AC3
Продолжительность : 4 м. 7 с.
Вид битрейта : Постоянный
Битрейт : 192 Кбит/сек
Каналы : 2 канала
ChannelLayout : L R
Частота : 48,0 КГц
Частота кадров : 31,250 кадров/сек (1536 SPF)
Метод сжатия : С потерями
Размер потока : 5,66 Мбайт (15%)
Язык : Russian
ServiceKind/String : Complete Main
Default : Да
Forced : Нет
Аудио #2
Идентификатор : 3
Формат : AAC LC
Формат/Информация : Advanced Audio Codec Low Complexity
Идентификатор кодека : A_AAC-2
Продолжительность : 4 м. 7 с.
Битрейт : 128 Кбит/сек
Каналы : 2 канала
ChannelLayout : L R
Частота : 44,1 КГц
Частота кадров : 43,066 кадра/сек (1024 SPF)
Метод сжатия : С потерями
Размер потока : 3,77 Мбайт (10%)
Язык : English
Default : Нет
Forced : Нет
Текст #1
Идентификатор : 4
Формат : UTF-8
Идентификатор кодека : S_TEXT/UTF8
Идентификатор кодека/Информация : UTF-8 Plain Text
Продолжительность : 3 м. 40 с.
Битрейт : 128 бит/сек
ElementCount : 57
Размер потока : 3,46 Кбайт (0%)
Заголовок : Русский (Mr.Faer) - для kosmoaelita
Язык : Russian
Default : Да
Forced : Нет
Текст #2
Идентификатор : 5
Формат : UTF-8
Идентификатор кодека : S_TEXT/UTF8
Идентификатор кодека/Информация : UTF-8 Plain Text
Продолжительность : 3 м. 46 с.
Битрейт : 78 бит/сек
ElementCount : 60
Размер потока : 2,17 Кбайт (0%)
Язык : English
Default : Нет
Forced : Нет

Скриншоты

cd Рип дополнительно залит на облако cd2
The Long Slow Flight of the Ashbot [Short] 2015.x264.WEBDL.1080p.kosmoaelita.mkv.torrent
Torrent: Registered [ 2020-02-17 07:40 ]

Download .torrent

Download

2 KB

Status: checked
Completed: 1 times
Size: 32 MB
Без озвучки
 


Last edited by Faer on 2020-05-10 19:40; edited 1 time in total
[Profile] [PM]

Faer ®

Gender: Male

Longevity: 5 years 9 months

Posts: 472

Post 10-May-2020 19:39 (after 2 months 22 days)

[Quote]

Добавлена озвучка от Firka. Только по ссылке на облако. На торренте без озвучки.
[Profile] [PM]
Display posts:    
Reply to topic

Current time is: 26-Oct 12:33

All times are UTC + 3



You can post new topics in this forum
You cannot reply to topics in this forum
You cannot edit your posts in this forum
You cannot delete your posts in this forum
You cannot vote in polls in this forum
You cannot attach files in this forum
You can download files in this forum